..::Ice.Cube.Love.Now.Cry.Later.O.G. Limited.Edition.2006.DVDRiP.XviD-BOSS::..

Posted by Arnie | Posted in , | Posted on 5:21 PM





1. Definition of a West Coast G' (Intro)
2. Why We Thugs
3. Smoke Some Weed
4. Dimes & Nicks (A Call from Mike Epps)
5. Child Support
6. 2 Decades Ago [Insert]
7. Doin' What It 'Pose 2Do
8. Laugh Now, Cry Later
9. Stop Snitchin'
10. Go to Church - Ice Cube, , Lil Jon, Snoop Dogg
11. Nigga Trapp
12. History of Violence (Insert)
13. Growin' Up
14. Click, Clack - Get Back!
15. Game Lord
16. Chrome & Paint - Ice Cube, , WC
17. Steal the Show
18. You Gotta Lotta That - Ice Cube, Snoop Dogg
19. Spittin' Pollaseeds - Ice Cube, Kokane, , WC
20. Holla @ Cha' Boy

Video: Xvid 720x544 29.97fps [Stream 00]
Audio: MPEG Audio Layer 3 48000Hz stereo 117Kbps [Stream 01]

http://newefficiency.blogspot.com/

..::Living.Legends.Broke.Ass.Summer.Jam.2007.DVDRiP.XViD-BOSS::..

Posted by Arnie | Posted in , | Posted on 9:11 PM





First ever DVD and all around official release of a Broke Ass Summer Jam concert! In the early 90's, our heroes BFAP and PSC, who of course were then known as The Mystik Journeymen, became local legends by throwing underground shows and house parties at their loft on 4001 San Leandro Street in East Oakland. These semi private/public events at their pad were dubbed as the Underground Survivor Shows, but it was later on in 1995 that Sunspot Jonz and Luckyiam would establish Broke Ass Summer Jam, as a direct response to a similarly titled Bay Area radio station concert simply known as Summer Jam, a major music event that neglected to represent local artists. For almost 15 years now, BASJ has become the premier West Coast underground hip hop event. Recorded live and filmed in 2006 and presented in HD format, this 2 disc set comes with the full-length dvd clocking in at 100mins and the CD which runs over 70mins, features performances by the Living Legends, Micah 9, Saafir, Aplus and more, with special features that include interviews and bios. If you've never had the chance to attend, you can now experience it for the first time with this release...Legends, baby!

Over 82 minutes featuring performances and interviews from LL, Bored Stiff, Z-Man, Micah 9 and more!

http://newefficiency.blogspot.com/

..::Scratch Perverts- Turntable Tutorial 1 - Divx Vhsrip::..

Posted by Arnie | Posted in , | Posted on 9:04 PM






scraPrime Cuts, Tony Vegas and Plus One are the Scratch Perverts - a name that has become synonymous with HipHop and battle DJing ever since their formation in 1996. Their reputation as one of the worlds most progressive DJ collectives is unparalleled; two consecutive World DMC Team titles, Plus One's World DMC Champion and World Vestax Champion titles, Prime Cut's 1999 and 2000 World ITF Scratching crowns, and countless showcases and gigs all over the world.

http://newefficiency.blogspot.com/

..::Janky.Promoters.2009.limited.dvdrip.xvid::..

Posted by Arnie | Posted in , | Posted on 8:32 PM

Image and video hosting by TinyPic



"Janky Promoters" sets Cube and another actor as music promoters who get the chance to book a top-tier hip-hop artist into a midsized California venue. The pair are ill equipped for such a task and everything goes wrong.




http://newefficiency.blogspot.com/

..::VH1.Hip.Hop.Honors.Def.Jam.Records.Show.2009.DSR.XviD-OMiCRON::..

Posted by Arnie | Posted in , | Posted on 8:14 PM


==============-[ OMiCRON PROUDLY PRESENTS ]-==================
Got something to offer email us at omicroncrew@gmail.com
Now Hiring cappers.....
Release name: VH1.Hip.Hop.Honors.Def.Jam.Records.Show.2009.DSR.XviD-OMiCRON
Source: DSR
Resolution: 512x384
Release Date: Oct/17/2009
======================== 
http://newefficiency.blogspot.com/

..::DJ.Whoo.Kid.Sada.Pop.TV.::..

Posted by Arnie | Posted in , | Posted on 12:00 PM




Format                           : AVI
Format/Info                      : Audio Video Interleave
File size                        : 1.35 GiB
Duration                         : 1h 58mn
Overall bit rate                 : 1 642 Kbps

Video
ID                               : 0
Format                           : MPEG-4 Visual
Format profile                   : Simple@L3
Format settings, BVOP            : Yes
Format settings, QPel            : No
Format settings, GMC             : No warppoints
Format settings, Matrix          : Default (H.263)
Codec ID                         : XVID
Codec ID/Hint                    : XviD
Duration                         : 1h 58mn
Bit rate                         : 1 501 Kbps
Width                            : 640 pixels
Height                           : 480 pixels
Display aspect ratio             : 4:3
Frame rate                       : 29.970 fps
Resolution                       : 24 bits
Scan type                        : Progressive
Bits/(Pixel*Frame)               : 0.163
Stream size                      : 1.24 GiB (91%)

Audio
ID                               : 1
Format                           : MPEG Audio
Format version                   : Version 1
Format profile                   : Layer 3
Codec ID                         : 55
Codec ID/Hint                    : MP3
Duration                         : 1h 58mn
Bit rate mode                    : Constant
Bit rate                         : 128 Kbps
Channel(s)                       : 2 channels
Sampling rate                    : 44.1 KHz
Resolution                       : 16 bits
Stream size                      : 108 MiB (8%)
Alignment                        : Aligned on interleaves
Interleave, duration             : 26 ms (0.78 video frame)
Writing library                  : LAME3.97



http://newefficiency.blogspot.com/

..::Fat.Joe.Live.At.The.House.Of.Blue.2006.DVDRiP.XviD-BOSS::..

Posted by Arnie | Posted in , | Posted on 1:41 PM

Image and video hosting by TinyPic

Fat Joe gets it poppin' in hit-mania mode, ladies' mode, and the wildly popular Latino mode in this 60-minute live performance from October 12, 2005




http://newefficiency.blogspot.com/